<?xml version="1.0" standalone="no"?>
<!DOCTYPE svg PUBLIC "-//W3C//DTD SVG 1.1//EN" "http://www.w3.org/Graphics/SVG/1.1/DTD/svg11.dtd" >
<svg xmlns="http://www.w3.org/2000/svg">
<metadata>Generated by IcoMoon</metadata>
<defs>
<font id="magazynuj" horiz-adv-x="1024">
<font-face units-per-em="1024" ascent="960" descent="-64" />
<missing-glyph horiz-adv-x="1024" />
<glyph unicode="&#x20;" horiz-adv-x="512" d="" />
<glyph unicode="&#xe900;" glyph-name="basket" d="M134.604 780.209l-10.693 53.568h-52.795c-30.421 0-55.111 24.69-55.111 55.111s24.69 55.111 55.111 55.111h97.989c26.288 0 48.885-18.572 54.064-44.308l10.693-53.677h719.035c19.124 0 36.814-9.865 46.9-26.123 10.030-16.258 10.912-36.539 2.37-53.623l-195.975-391.84c-9.314-18.683-28.382-30.476-49.269-30.476h-467.012l-85.753-85.753h552.763c83.989 0 153.1-69.109 153.1-153.1s-69.109-153.1-153.1-153.1c-83.989 0-153.1 69.109-153.1 153.1 0 14.88 2.149 29.264 6.171 42.875h-196.692c4.078-13.173 6.503-27.115 6.834-41.555l-55.056-56.434 55.111 55.111c0-83.989-69.109-153.1-153.1-153.1s-153.1 69.109-153.1 153.1c0 0.441 0 0.882 0 1.323 0.551 21.715 5.62 42.324 14.384 60.899-48.167 34.939-61.449 109.506-12.62 158.334l91.483 91.54-72.525 362.356-0.11 0.661zM756.918 147.975c-23.531 0-42.875-19.344-42.875-42.875s19.344-42.875 42.875-42.875c23.531 0 42.875 19.344 42.875 42.875s-19.344 42.875-42.875 42.875zM309.911 103.722v0.055c-0.551 23.148-19.73 41.884-42.875 41.884-22.871 0-41.941-18.407-42.82-41.719 0.661-22.981 19.73-41.719 42.875-41.719 23.036 0 42.106 18.572 42.82 41.5zM312.281 454.171h410.578c0 0 140.864 281.618 140.864 281.618h-607.819l56.379-281.618z" />
<glyph unicode="&#xe901;" glyph-name="email" horiz-adv-x="1365" d="M21.575 788.174l660.926-330.422 660.926 330.422c-5.214 87.068-77.098 155.707-165.015 155.707-0.011 0-0.022 0-0.031 0h-991.759c-0.009 0-0.020 0-0.031 0-87.917 0-159.802-68.638-164.993-155.249l-0.023-0.458zM1343.674 603.542l-661.174-330.587-661.174 330.587v-486.128c0-91.289 74.004-165.293 165.293-165.293v0h991.761c91.289 0 165.293 74.004 165.293 165.293v0 486.128z" />
<glyph unicode="&#xe902;" glyph-name="heart" horiz-adv-x="1132" d="M105.008 849.297c-116.373-121.363-116.318-317.967 0.164-439.275l421.286-438.726c10.31-10.749 24.624-16.836 39.54-16.836s29.23 6.086 39.54 16.836l421.286 438.726c116.481 121.308 116.536 317.912 0.164 439.275-55.664 58.844-133.208 92.243-214.208 92.243s-158.49-33.344-214.154-92.188c0 0-32.63-34.002-32.63-34.002s-32.63 34.002-32.63 34.002c-55.664 58.844-133.153 92.188-214.154 92.188s-158.545-33.399-214.208-92.243v0zM184.253 773.453c0.109 0.164 0.219 0.275 0.329 0.384 34.989 37.018 83.686 58.022 134.635 58.022s99.646-21.005 134.635-58.022l72.609-75.625c10.31-10.749 24.624-16.836 39.54-16.836s29.23 6.086 39.54 16.836l72.609 75.625c34.989 37.018 83.686 58.022 134.635 58.022s99.646-21.005 134.635-58.022c0.109-0.109 0.219-0.219 0.329-0.384 76.173-79.355 76.173-208.065 0-287.42 0 0-381.746-397.54-381.746-397.54s-381.746 397.54-381.746 397.54c-76.173 79.355-76.173 208.065 0 287.42z" />
<glyph unicode="&#xe903;" glyph-name="phone" d="M16.002 833.772c0 60.838 49.348 110.185 110.185 110.185h180.776c23.723 0 44.801-15.21 52.323-37.693l82.412-247.483c1.805-5.218 2.847-11.231 2.847-17.486 0-21.453-12.252-40.045-30.142-49.158l-0.313-0.145-124.402-62.16c62.224-135.522 168.583-241.88 300.326-302.544l3.78-1.561 62.16 124.402c9.258 18.201 27.85 30.455 49.303 30.455 6.256 0 12.269-1.042 17.875-2.962l-0.388 0.115 247.566-82.494c22.483-7.439 37.693-28.601 37.693-52.323v-180.693c0-60.838-49.348-110.185-110.185-110.185h-55.216c-456.528 0-826.595 370.067-826.595 826.595v55.134z" />
<glyph unicode="&#xe904;" glyph-name="return" horiz-adv-x="910" d="M24.749 729.854c158.941 1.978 311.895 61.565 430.25 167.728 118.355-106.162 271.308-165.752 430.25-167.728 6.041-35.699 9.118-72.495 9.118-109.896 0-286.961-183.436-531.085-439.366-621.538-255.931 90.399-439.366 334.576-439.366 621.483 0 37.456 3.13 74.144 9.118 109.841v0.11zM658.589 526.207c9.886 10.214 15.432 23.946 15.432 38.171 0 30.096-24.824 54.921-54.921 54.921-14.224 0-27.955-5.547-38.171-15.432l-180.854-180.854-71.011 71.011c-10.214 9.886-23.946 15.432-38.171 15.432-30.096 0-54.921-24.824-54.921-54.921 0-14.224 5.547-27.955 15.432-38.171l109.841-109.841c21.31-21.31 56.348-21.31 77.658 0l219.684 219.684z" />
<glyph unicode="&#xe905;" glyph-name="search" horiz-adv-x="1075" d="M681.108 234.255l267.747-267.747c19.344-19.344 50.792-19.344 70.137 0s19.344 50.792 0 70.137l-267.747 267.747c52.479 67.308 83.875 151.682 83.875 242.798 0 217.7-179.11 396.81-396.81 396.81s-396.81-179.11-396.81-396.81c0-217.7 179.11-396.81 396.81-396.81 91.116 0 175.49 31.399 242.798 83.875zM735.917 547.19c0-163.286-134.321-297.608-297.608-297.608s-297.608 134.321-297.608 297.608c0 163.286 134.321 297.608 297.608 297.608s297.608-134.321 297.608-297.608z" />
<glyph unicode="&#xe906;" glyph-name="star" d="M448.668 876.387c19.986 61.289 106.724 61.289 126.71 0l71.283-219.311c8.861-27.38 34.509-46.035 63.289-46.035h230.636c64.487 0 91.336-82.609 39.105-120.581l-186.535-135.505c-23.25-16.922-33.111-47.101-24.183-74.481l71.283-219.311c19.919-61.356-50.365-112.388-102.595-74.481l-186.535 135.572c-23.25 16.922-55.028 16.922-78.278 0l-186.535-135.572c-52.229-37.974-122.447 13.125-102.528 74.481l71.283 219.311c8.861 27.38-0.932 57.559-24.249 74.481l-186.535 135.572c-52.229 37.907-25.315 120.516 39.172 120.516h230.569c28.78 0 54.428 18.588 63.356 45.968l71.283 219.378z" />
<glyph unicode="&#xe907;" glyph-name="user" horiz-adv-x="808" d="M404 405.863c-214.593 0-391.164-176.571-391.164-391.164 0-29.897 24.266-54.163 54.163-54.163h674.004c29.897 0 54.163 24.266 54.163 54.163 0 214.593-176.571 391.164-391.164 391.164zM404 297.535c136.652 0 252.020-99.063 277.585-228.676 0 0-555.17 0-555.17 0 25.564 129.612 140.932 228.676 277.585 228.676zM650.765 688.701c0 135.354-111.414 246.765-246.765 246.765s-246.765-111.414-246.765-246.765c0-135.354 111.414-246.765 246.765-246.765s246.765 111.414 246.765 246.765zM542.439 688.701c0-75.936-62.504-138.44-138.44-138.44s-138.44 62.504-138.44 138.44c0 75.936 62.504 138.44 138.44 138.44s138.44-62.504 138.44-138.44z" />
<glyph unicode="&#xe908;" glyph-name="delivery" horiz-adv-x="1365" d="M517.207 76.089c0-68.019-55.952-123.97-123.97-123.97s-123.97 55.952-123.97 123.97c0 68.019 55.952 123.97 123.97 123.97s123.97-55.952 123.97-123.97zM1095.733 76.089c0-68.019-55.952-123.97-123.97-123.97s-123.97 55.952-123.97 123.97c0 68.019 55.952 123.97 123.97 123.97s123.97-55.952 123.97-123.97zM103.971 943.881c-45.373 0-82.647-37.274-82.647-82.647v-661.174c0-45.373 37.274-82.647 82.647-82.647h86.779c19.504 95.953 104.631 165.541 202.484 165.541s182.98-69.588 202.484-165.541h86.779c45.373 0 82.647 37.274 82.647 82.647v661.174c0 45.373-37.274 82.647-82.647 82.647h-578.528zM1013.087 778.587c-45.373 0-82.647-37.274-82.647-82.647v-417.367c13.637 2.81 27.438 4.215 41.323 4.215 97.853 0 182.98-69.506 202.484-165.376h86.779c45.373 0 82.647 37.274 82.647 82.647v330.587c0 21.902-8.761 42.977-24.215 58.431l-165.293 165.293c-15.455 15.455-36.53 24.215-58.431 24.215h-82.647z" />
<glyph unicode="&#xe909;" glyph-name="more" d="M1008 448c0 272.105-223.895 496-496 496s-496-223.895-496-496c0-272.105 223.895-496 496-496s496 223.895 496 496zM908.8 448c0-217.695-179.105-396.8-396.8-396.8s-396.8 179.105-396.8 396.8c0 217.695 179.105 396.8 396.8 396.8s396.8-179.105 396.8-396.8zM590.665 497.6h-277.065c-27.378 0-49.6-22.222-49.6-49.6s22.222-49.6 49.6-49.6h277.065l-64.134-64.134c-19.344-19.344-19.344-50.791 0-70.135s50.791-19.344 70.135 0l150.585 150.634c2.082 2.33 3.919 4.81 5.505 7.391l0.346 0.646 1.191 2.134 1.090 2.183 0.398 0.894 0.297 0.695 0.297 0.646 0.248 0.695 0.346 0.894 0.248 0.646 0.15 0.496 0.398 1.191 0.646 2.33 0.199 0.695c0.894 3.769 1.39 7.688 1.39 11.705s-0.496 7.936-1.39 11.705l-0.199 0.695-0.646 2.33-0.447 1.39-0.346 0.943-0.447 1.090-0.15 0.496-0.297 0.646-0.398 0.943-0.297 0.646-1.090 2.183-1.191 2.134-1.289 2.082-1.39 2.033-1.537 1.984-1.638 1.935-1.785 1.834-148.8 148.8c-19.344 19.344-50.791 19.344-70.135 0s-19.344-50.791 0-70.135l64.134-64.134z" />
<glyph unicode="&#xe90a;" glyph-name="facebook" d="M512 944c273.729 0 496-221.963 496-496 0-273.729-221.963-496-496-496-273.729 0-496 221.963-496 496 0 273.729 221.963 496 496 496zM567.335 611.65h92.535v110.981h-92.535c-71.459-0.050-129.377-57.966-129.426-129.423v-55.34h-74.090v-110.981h74.090v-295.745h110.981v295.745h92.535l18.445 110.981h-110.981v55.314c0 10.137 8.331 18.467 18.445 18.467z" />
<glyph unicode="&#xe90b;" glyph-name="instagram" d="M512 944c-274.037 0-496-222.272-496-496 0-274.037 222.272-496 496-496 274.037 0 496 222.272 496 496 0 274.037-222.272 496-496 496zM395.928 720.253h232.079c87.181 0 158.296-70.521 158.296-156.203v-231.482c0-85.99-71.115-156.224-158.296-156.224h-232.056c-87.203 0-158.296 70.233-158.296 156.224v231.482c0 85.99 71.401 156.203 158.273 156.203zM510.48 594.99v0c-84.795 0-153.537-68.74-153.537-153.537s68.74-153.537 153.537-153.537v0c84.795 0 153.537 68.74 153.537 153.537s-68.74 153.537-153.537 153.537zM510.48 543.223h-0.007c-55.998-0.076-101.379-45.456-101.454-101.462v0.004c0-0.024 0-0.046 0-0.070 0-55.999 45.396-101.395 101.395-101.395 0.024 0 0.046 0 0.066 0h0.007c55.998 0.076 101.379 45.456 101.454 101.462v0.009c-0.089 55.987-45.464 101.355-101.462 101.43zM658.97 616.412c-13.994 0-25.014-11.326-25.014-24.991 0-13.973 11.306-24.991 25.014-24.991 13.973 0 24.991 11.306 24.991 24.991 0 13.973-11.326 24.991-24.991 24.991zM414.969 675.913h193.997c72.9 0 132.401-59.215 132.401-131.784v-195.208c0-72.592-59.501-131.784-132.401-131.784h-193.997c-72.88 0-132.401 59.192-132.401 131.784v195.187c0 72.592 59.501 131.807 132.401 131.807z" />
<glyph unicode="&#xe90c;" glyph-name="down" d="M512-48c272.105 0 496 223.895 496 496s-223.895 496-496 496c-272.105 0-496-223.895-496-496s223.895-496 496-496zM512 51.2c-217.695 0-396.8 179.105-396.8 396.8s179.105 396.8 396.8 396.8c217.695 0 396.8-179.105 396.8-396.8s-179.105-396.8-396.8-396.8zM561.6 369.335v277.065c0 27.378-22.222 49.6-49.6 49.6s-49.6-22.222-49.6-49.6v-277.065l-64.134 64.134c-19.344 19.344-50.791 19.344-70.135 0s-19.344-50.791 0-70.135l150.634-150.585c2.33-2.082 4.81-3.919 7.391-5.505l0.646-0.346 2.134-1.191 2.183-1.090 0.894-0.398 0.695-0.297 0.646-0.297 0.695-0.248 0.894-0.346 0.646-0.248 0.496-0.15 1.191-0.398 2.33-0.646 0.695-0.199c3.769-0.894 7.688-1.39 11.705-1.39s7.936 0.496 11.705 1.39l0.695 0.199 2.33 0.646 1.39 0.447 0.943 0.346 1.090 0.447 0.496 0.15 0.646 0.297 0.943 0.398 0.646 0.297 2.183 1.090 2.134 1.191 2.082 1.289 2.033 1.39 1.984 1.537 1.935 1.638 1.834 1.785 148.8 148.8c19.344 19.344 19.344 50.791 0 70.135s-50.791 19.344-70.135 0l-64.134-64.134z" />
<glyph unicode="&#xe90d;" glyph-name="up" d="M512 944c-272.105 0-496-223.895-496-496s223.895-496 496-496c272.105 0 496 223.895 496 496s-223.895 496-496 496zM512 844.8c217.695 0 396.8-179.105 396.8-396.8s-179.105-396.8-396.8-396.8c-217.695 0-396.8 179.105-396.8 396.8s179.105 396.8 396.8 396.8zM462.4 526.665v-277.065c0-27.378 22.222-49.6 49.6-49.6s49.6 22.222 49.6 49.6v277.065l64.134-64.134c19.344-19.344 50.791-19.344 70.135 0s19.344 50.791 0 70.135l-150.634 150.585c-2.33 2.082-4.81 3.919-7.391 5.505l-0.646 0.346-2.134 1.191-2.183 1.090-0.894 0.398-0.695 0.297-0.646 0.297-0.695 0.248-0.894 0.346-0.646 0.248-0.496 0.15-1.191 0.398-2.33 0.646-0.695 0.199c-3.769 0.894-7.688 1.39-11.705 1.39s-7.936-0.496-11.705-1.39l-0.695-0.199-2.33-0.646-1.39-0.447-0.943-0.346-1.090-0.447-0.496-0.15-0.646-0.297-0.943-0.398-0.646-0.297-2.183-1.090-2.134-1.191-2.082-1.289-2.033-1.39-1.984-1.537-1.935-1.638-1.834-1.785-148.8-148.8c-19.344-19.344-19.344-50.791 0-70.135s50.791-19.344 70.135 0l64.134 64.134z" />
<glyph unicode="&#xe90e;" glyph-name="back" d="M16 448c0-272.105 223.895-496 496-496s496 223.895 496 496c0 272.105-223.895 496-496 496s-496-223.895-496-496zM115.2 448c0 217.695 179.105 396.8 396.8 396.8s396.8-179.105 396.8-396.8c0-217.695-179.105-396.8-396.8-396.8s-396.8 179.105-396.8 396.8zM433.335 398.4h277.065c27.378 0 49.6 22.222 49.6 49.6s-22.222 49.6-49.6 49.6h-277.065l64.134 64.134c19.344 19.344 19.344 50.791 0 70.135s-50.791 19.344-70.135 0l-150.585-150.634c-2.082-2.33-3.919-4.81-5.505-7.391l-0.346-0.646-1.191-2.134-1.090-2.183-0.398-0.894-0.297-0.695-0.297-0.646-0.248-0.695-0.346-0.894-0.248-0.646-0.15-0.496-0.398-1.191-0.646-2.33-0.199-0.695c-0.894-3.769-1.39-7.688-1.39-11.705s0.496-7.936 1.39-11.705l0.199-0.695 0.646-2.33 0.447-1.39 0.346-0.943 0.447-1.090 0.15-0.496 0.297-0.646 0.398-0.943 0.297-0.646 1.090-2.183 1.191-2.134 1.289-2.082 1.39-2.033 1.537-1.984 1.638-1.935 1.785-1.834 148.8-148.8c19.344-19.344 50.791-19.344 70.135 0s19.344 50.791 0 70.135l-64.134 64.134z" />
<glyph unicode="&#xe90f;" glyph-name="question" d="M1008 448.012c0 273.921-222.055 495.976-496 495.976-273.921 0-496-222.055-496-495.976 0-273.943 222.078-496 496-496 273.943 0 496 222.055 496 496zM908.805 448.012c0-219.146-177.657-396.804-396.804-396.804s-396.804 177.657-396.804 396.804c0 219.124 177.657 396.78 396.804 396.78s396.804-177.657 396.804-396.78zM513.719 247.971c27.605 0 50.009-22.406 50.009-50.009s-22.406-50.009-50.009-50.009c-27.605 0-50.009 22.406-50.009 50.009s22.406 50.009 50.009 50.009zM369.76 575.66c20.434 43.344 77.456 70.742 142.241 70.742 43.091 0 82.289-12.486 110.535-33.677 22.679-16.999 38.282-39.586 38.282-65.519 0-48.452-49.003-83.983-108.839-95.46-50.079-9.599-89.573-51.958-89.573-102.951 0-27.375 22.223-49.598 49.598-49.598s49.598 22.223 49.598 49.598c0 3.963 5.177 4.788 9.072 5.521 0 0 0 0 0 0 111.703 21.442 189.342 102.425 189.342 192.893 0 105.242-107.695 198.39-248.012 198.39-107.992 0-197.909-55.395-231.974-127.648-11.661-24.766-1.030-54.341 23.733-66.024 24.766-11.661 54.341-1.030 66 23.733z" />
<glyph unicode="&#xe910;" glyph-name="close" d="M512 548.2l-375.073 375.073c-27.636 27.636-72.564 27.636-100.199 0s-27.636-72.564 0-100.199l375.073-375.073-375.073-375.073c-27.636-27.636-27.636-72.564 0-100.199s72.564-27.636 100.199 0l375.073 375.073 375.073-375.073c27.636-27.636 72.564-27.636 100.199 0s27.636 72.564 0 100.199l-375.073 375.073 375.073 375.073c27.636 27.636 27.636 72.564 0 100.199s-72.564 27.636-100.199 0l-375.073-375.073z" />
<glyph unicode="&#xe911;" glyph-name="newsletter" d="M364.142 811.816c8.233 74.351 71.274 132.184 147.858 132.184s139.624-57.833 147.858-132.184c117.8-55.552 199.343-175.336 199.343-314.216 0 0 0-156.687 0-156.687 0-13.541 5.407-26.586 14.979-36.158l69.688-69.688c14.185-14.185 18.45-35.513 10.763-54.064-7.688-18.502-25.792-30.603-45.831-30.603h-198.4c0-109.567-88.834-198.4-198.4-198.4s-198.4 88.834-198.4 198.4h-198.4c-20.039 0-38.143 12.103-45.831 30.603-7.688 18.55-3.423 39.879 10.763 54.064l69.688 69.688c9.574 9.574 14.979 22.617 14.979 36.158v156.687c0 138.88 81.543 258.664 199.343 314.216zM412.949 145.29c2.629-52.427 45.979-94.090 99.051-94.090 54.808 0 99.2 44.392 99.2 99.2h-198.4l0.149-5.11zM561.6 794.704v0.496c0 27.379-22.222 49.6-49.6 49.6s-49.6-22.222-49.6-49.6v0-16.567c0-35.614-30.504-46.128-43.698-48.954l10.615 1.834c-96.323-34.075-165.318-125.935-165.318-233.914 0 0 0-156.687 0-156.687 0-33.183-10.962-65.224-30.95-91.314h557.903c-19.99 26.090-30.95 58.131-30.95 91.314v156.687c0 107.978-68.994 199.839-165.318 233.914 5.306-1.886 10.863-2.826 16.518-2.826 0 0-49.6 4.513-49.6 49.946v16.071zM653.658 752.643c-8.729-14.533-24.65-23.957-42.457-23.957 0 0 28.769 2.629 42.457 23.957zM409.278 749.121l3.521-3.521-3.521 3.472v0.049zM660.65 774.467c-0.049-0.894-0.149-1.785-0.297-2.679l0.297 2.679zM660.8 778.633l-0.149-4.067c0.098 1.438 0.149 2.878 0.149 4.266v-0.199z" />
<glyph unicode="&#xe912;" glyph-name="config" d="M725.133 163.904l197.175-197.175c19.576-19.576 51.402-19.576 70.979 0s19.576 51.402 0 70.979l-197.175 197.175 180.309 72.134c19.325 7.73 31.876 26.554 31.574 47.387-0.351 20.832-13.503 39.255-33.030 46.383l-552.168 200.788c-18.321 6.676-38.852 2.108-52.658-11.695s-18.373-34.334-11.695-52.658l200.788-552.168c7.128-19.527 25.55-32.678 46.383-33.030 20.832-0.301 39.655 12.247 47.387 31.574l72.134 180.309zM688.239 299.838l128.805 51.551c0 0-327.486 119.067-327.486 119.067s119.067-327.486 119.067-327.486l51.551 128.805c2.158 5.423 5.271 10.542 9.388 15.109 0.552 0.602 1.154 1.205 1.758 1.808l1.808 1.758c4.567 4.117 9.688 7.227 15.109 9.388zM228.133 447.919l-106.469-106.518c-19.576-19.576-19.576-51.402 0-70.979s51.402-19.576 70.979 0l106.518 106.469c19.576 19.626 19.576 51.402 0 71.028-19.626 19.576-51.402 19.576-71.028 0zM224.67 654.831l-145.472 39.004c-26.754 7.178-54.313-8.734-61.491-35.49-7.128-26.805 8.734-54.313 35.54-61.491l145.42-39.004c26.754-7.128 54.313 8.734 61.491 35.49 7.178 26.805-8.734 54.313-35.49 61.491zM618.615 838.353l-106.518-106.469c-19.576-19.626-19.576-51.402 0-71.028 19.576-19.576 51.402-19.576 70.979 0l106.518 106.518c19.576 19.576 19.576 51.402 0 70.979s-51.402 19.576-70.979 0zM266.183 880.82l39.004-145.472c7.178-26.754 34.687-42.667 61.441-35.49 26.805 7.178 42.667 34.687 35.54 61.491l-39.004 145.42c-7.178 26.754-34.737 42.667-61.491 35.49-26.754-7.128-42.667-34.687-35.49-61.441z" />
<glyph unicode="&#xe913;" glyph-name="compas" d="M512 944c-273.933 0-496-222.066-496-496s222.066-496 496-496c273.933 0 496 222.066 496 496v0c0 273.933-222.066 496-496 496v0zM561.6 54.672v46.128c0 27.393-22.208 49.6-49.6 49.6s-49.6-22.208-49.6-49.6v0-46.128c-179.621 23.426-320.301 164.106-343.513 341.725l-0.215 2.002h46.128c27.393 0 49.6 22.208 49.6 49.6s-22.208 49.6-49.6 49.6v0h-46.128c23.426 179.621 164.106 320.301 341.725 343.513l2.002 0.215v-46.128c0-27.393 22.208-49.6 49.6-49.6s49.6 22.208 49.6 49.6v0 46.128c179.621-23.426 320.301-164.106 343.513-341.725l0.215-2.002h-46.128c-27.393 0-49.6-22.208-49.6-49.6s22.208-49.6 49.6-49.6v0h46.128c-23.426-179.621-164.106-320.301-341.725-343.513l-2.002-0.215zM667.743 668.72l-247.999-105.152c-11.603-5.115-20.677-14.189-25.667-25.475l-0.126-0.318-105.152-247.999c-2.545-5.771-4.026-12.498-4.026-19.574 0-13.654 5.517-26.018 14.443-34.988l-0.002 0.002c8.848-9.024 21.106-14.68 34.684-14.88h0.036c0.013 0 0.029 0 0.042 0 7.194 0 14.003 1.646 20.071 4.584l-0.276-0.12 247.999 105.152c11.603 5.115 20.677 14.189 25.667 25.475l0.126 0.318 105.152 247.999c2.464 5.689 3.898 12.314 3.898 19.274 0 27.393-22.208 49.6-49.6 49.6-6.96 0-13.585-1.434-19.596-4.021l0.322 0.123zM544.24 415.76l-113.088-49.6 49.6 113.088 113.088 49.6z" />
<glyph unicode="&#xe914;" glyph-name="trash" horiz-adv-x="922" d="M262.599 745.6v99.2c0 54.41 44.79 99.2 99.2 99.2h198.4c54.41 0 99.2-44.79 99.2-99.2v-99.2h198.4c27.378 0 49.6-22.222 49.6-49.6s-22.222-49.6-49.6-49.6h-3.423l-39.729-556.166c-5.505-77.474-70.729-138.234-148.402-138.234 0 0-410.489 0-410.489 0-77.673 0-142.897 60.76-148.402 138.234l-39.729 556.166h-3.423c-27.378 0-49.6 22.222-49.6 49.6s22.222 49.6 49.6 49.6h198.4zM167.070 646.4l39.184-549.121c1.886-25.841 23.609-46.079 49.502-46.079h410.489c25.89 0 47.616 20.238 49.502 46.079l39.184 549.121h-587.858zM312.199 497.6c0 27.378 22.222 49.6 49.6 49.6s49.6-22.222 49.6-49.6v-297.6c0-27.378-22.222-49.6-49.6-49.6s-49.6 22.222-49.6 49.6v297.6zM510.599 497.6c0 27.378 22.222 49.6 49.6 49.6s49.6-22.222 49.6-49.6v-297.6c0-27.378-22.222-49.6-49.6-49.6s-49.6 22.222-49.6 49.6v297.6zM361.799 745.6h198.4v99.2h-198.4v-99.2z" />
<glyph unicode="&#xe915;" glyph-name="chat" horiz-adv-x="1138" d="M1120.102 448.008c0 272.025-245.075 495.992-551.102 495.992-164.008 0-310.987-64.534-411.508-165.937-87.13-87.956-139.594-203.633-139.594-330.056 0-88.122 25.516-171.007 70.486-242.981 0 0-66.959-178.557-66.959-178.557-7.054-18.738-3.362-39.789 9.589-55.055 12.951-15.211 33.176-22.265 52.795-18.352l244.083 48.827c75.942-33.121 158.111-50.15 241.217-49.875 305.972 0.055 550.992 224.023 550.992 495.992zM1009.882 448.008c0-214.929-199.113-385.771-440.882-385.771-0.055 0-0.11 0-0.165 0-72.911-0.276-144.885 15.817-210.741 47.009-10.692 5.070-22.761 6.558-34.388 4.244l-164.283-32.9c0 0 42.049 112.204 42.049 112.204 6.448 17.14 3.913 36.427-6.724 51.363-42.049 58.968-66.628 128.848-66.628 203.853 0 96.828 40.947 185.115 107.685 252.46 81.288 82.059 200.546 133.312 333.196 133.312 241.769 0 440.882-170.841 440.882-385.771zM566.465 506.645c31.302 0 56.708-25.461 56.708-56.763s-25.406-56.708-56.708-56.708c-31.302 0-56.708 25.406-56.708 56.708s25.406 56.763 56.708 56.763zM347.182 506.645c31.302 0 56.708-25.461 56.708-56.763s-25.406-56.708-56.708-56.708c-31.302 0-56.763 25.406-56.763 56.708s25.461 56.763 56.763 56.763zM785.803 506.645c31.302 0 56.708-25.461 56.708-56.763s-25.406-56.708-56.708-56.708c-31.302 0-56.708 25.406-56.708 56.708s25.406 56.763 56.708 56.763z" />
<glyph unicode="&#xe916;" glyph-name="download" d="M16 227.556v-55.111c0-120.914 99.531-220.444 220.444-220.444 0 0 551.11 0 551.11 0 120.914 0 220.444 99.531 220.444 220.444 0 0 0 55.111 0 55.111 0 30.421-24.69 55.111-55.111 55.111s-55.111-24.69-55.111-55.111v-55.111c0-60.457-49.765-110.222-110.222-110.222h-551.11c-60.457 0-110.222 49.765-110.222 110.222 0 0 0 55.111 0 55.111 0 30.421-24.69 55.111-55.111 55.111s-55.111-24.69-55.111-55.111zM456.889 360.594l-126.37 126.37c-21.493 21.493-56.434 21.493-77.927 0s-21.493-56.434 0-77.927l220.444-220.444c3.141-3.196 6.613-5.842 10.251-8.101l0.716-0.386 2.37-1.323 2.425-1.212 0.992-0.441 0.772-0.331 0.716-0.331 0.772-0.276 0.992-0.386 0.716-0.276 0.551-0.165 1.323-0.441 2.59-0.716 0.772-0.22c4.188-0.992 8.542-1.543 13.006-1.543s8.818 0.551 13.006 1.543l0.772 0.22 2.59 0.716 1.323 0.441 0.551 0.165 0.716 0.276 0.992 0.386 0.882 0.331 0.606 0.276 0.772 0.331 0.992 0.441 2.425 1.212 2.37 1.323 2.315 1.433 2.26 1.543 2.204 1.708 2.149 1.819 2.039 1.984 220.444 220.444c21.493 21.493 21.493 56.434 0 77.927s-56.434 21.493-77.927 0l-126.37-126.37v528.294c0 30.421-24.69 55.111-55.111 55.111s-55.111-24.69-55.111-55.111v-528.294z" />
<glyph unicode="&#xe917;" glyph-name="checked" horiz-adv-x="1365" d="M45.501 306.945l330.609-330.609c32.234-32.317 84.636-32.317 116.87 0l826.52 826.52c32.234 32.234 32.234 84.636 0 116.87s-84.636 32.234-116.87 0l-768.086-768.086c0 0-272.173 272.173-272.173 272.173-32.234 32.234-84.636 32.234-116.87 0s-32.234-84.636 0-116.87z" />
<glyph unicode="&#xe918;" glyph-name="shield" d="M537.802 941.723c-14.502 13.703-37.105 13.703-51.607 0-100.813-95.463-236.93-154.019-386.748-154.019-2.4 0-4.751 0-7.151 0.050-16.352 0.201-30.955-10.251-36.104-25.803-20.603-62.657-31.754-129.667-31.754-199.275 0-297.087 203.225-546.718 478.209-617.477 6.15-1.6 12.551-1.6 18.702 0 274.984 70.759 478.209 320.389 478.209 617.477 0 69.609-11.152 136.616-31.754 199.275-5.151 15.551-19.752 26.003-36.104 25.803-2.4-0.050-4.751-0.050-7.151-0.050-149.818 0-285.935 58.558-386.748 154.019zM511.999 864.163c106.414-90.411 242.83-146.468 392.2-151.119 13.301-47.856 20.352-98.312 20.352-150.369 0-258.732-174.621-476.66-412.501-542.318-237.929 65.658-412.602 283.586-412.602 542.318 0 52.057 7.051 102.513 20.352 150.369 149.368 4.65 285.836 60.707 392.2 151.119zM335.476 386.154l112.514-112.514c7.801-7.801 18.603-11.751 29.604-10.852s21.003 6.601 27.403 15.551l187.523 262.533c12.052 16.853 8.152 40.304-8.701 52.306-16.853 12.052-40.304 8.152-52.306-8.701l-161.819-226.478c0 0-81.211 81.211-81.211 81.211-14.602 14.602-38.404 14.602-53.007 0-14.651-14.651-14.651-38.404 0-53.056z" />
<glyph unicode="&#xe919;" glyph-name="menu" horiz-adv-x="1536" d="M24 882c0 33.976 28.024 62 62 62h1364c33.976 0 62-28.024 62-62s-28.024-62-62-62h-1364c-33.976 0-62 28.024-62 62zM24 448c0 33.976 28.024 62 62 62h1364c33.976 0 62-28.024 62-62s-28.024-62-62-62h-1364c-33.976 0-62 28.024-62 62zM24 14c0 33.976 28.024 62 62 62h1364c33.976 0 62-28.024 62-62s-28.024-62-62-62h-1364c-33.976 0-62 28.024-62 62z" />
<glyph unicode="&#xe91a;" glyph-name="heart-full" horiz-adv-x="1132" d="M104.902 849.27c-116.373-121.363-116.318-317.967 0.164-439.275l421.286-438.726c10.31-10.749 24.624-16.836 39.54-16.836s29.23 6.086 39.54 16.836l421.286 438.726c116.481 121.308 116.536 317.912 0.164 439.275-55.664 58.844-133.208 92.243-214.208 92.243s-158.49-33.344-214.154-92.188l-32.63-34.002-32.63 34.002c-55.664 58.844-133.153 92.188-214.154 92.188s-158.545-33.399-214.208-92.243z" />
<glyph unicode="&#xe91b;" glyph-name="bolt" d="M96.4 401.331c-9.638-10.345-12.237-25.367-6.611-38.31s18.377-21.303 32.5-21.303h343.325c0 0-94.096-344.979-94.096-344.979-4.25-15.682 2.741-32.311 16.957-40.247s32.025-5.149 43.127 6.755l495.996 531.426c9.638 10.345 12.237 25.367 6.611 38.31s-18.377 21.303-32.5 21.303h-343.325c0 0 94.096 344.979 94.096 344.979 4.25 15.682-2.741 32.311-16.957 40.247s-32.025 5.149-43.127-6.755l-495.996-531.426zM203.821 412.571l342.57 367.038c0 0-68.591-251.445-68.591-251.445-2.883-10.63-0.659-22.013 6.045-30.798s17.099-13.935 28.154-13.935h308.177c0 0-342.57-367.038-342.57-367.038s68.591 251.445 68.591 251.445c2.883 10.63 0.659 22.013-6.045 30.798s-17.099 13.935-28.154 13.935h-308.177z" />
<glyph unicode="&#xe91c;" glyph-name="thumb-up" d="M284.785 523.533c16.492 6.268 30.959 18.187 42.22 32.514 39.582 50.512 89.34 92.214 145.98 122.466 0 0 0.047 0 0.047 0 26.718 14.184 50.465 34.681 61.635 62.718 0.047 0 0.047 0 0.047 0.047 8.341 20.875 12.629 43.161 12.629 65.64v29.829c0 38.782 31.901 70.68 70.68 70.68 77.559 0 141.361-63.802 141.361-141.361 0-59.701-13.475-116.248-37.509-166.806 0 0 0 0 0-0.047-1.226-2.592-0.708-5.56 0.565-7.869 0.426-0.801 0.708-1.981 1.694-1.981 0 0 147.3 0 147.3 0 66.44 0 124.872-46.272 131.941-112.383 0 0 0 0 0 0 2.264-21.109 3.393-42.55 3.393-64.32 0.19-136.981-46.651-269.953-132.644-376.588-25.020-31.006-63.329-47.498-103.147-47.498h-189.237c-26.575 0-52.964 4.287-78.174 12.629l-146.782 49.007c-18.002 6.031-36.898 9.045-55.886 9.045h-25.398c3.203-35.763-24.173-70.68-62.673-70.68 0 0-42.785 0-42.785 0-57.487 0-109.98 34.542-126.71 89.483 0 0 0 0 0 0-17.34 56.922-26.154 116.105-26.103 175.573 0 77.749 14.794 152.012 41.607 220.196 0 0 0 0 0.047 0.047 19.743 49.947 69.503 80.151 123.27 80.151 0 0 49.618 0 49.618 0 23.182 0 42.124-12.674 53.011-30.487zM220.178 483.34h-38.027c-24.737 0-48.489-12.489-57.534-35.435-23.7-60.172-36.707-125.672-36.707-194.28 0 0 0 0 0-0.047-0.047-52.493 7.726-104.702 22.996-154.886 7.68-25.163 32.796-39.439 59.136-39.439h31.57l-3.015 6.55c-1.129 2.592-2.212 5.138-3.347 7.726l-2.967 7.115-0.092 0.19-0.19 0.518v-0.092l-0.426 1.177-0.235 0.708c-21.678 54.238-32.796 112.1-32.704 170.481-0.092 80.907 21.252 160.399 61.538 229.714zM618.022 836.745c0 0 0-29.829 0-29.829 0-31.477-5.985-62.673-17.717-91.886-17.34-43.54-52.682-76.901-94.052-98.907-47.971-25.585-90.095-60.88-123.645-103.713 0 0 0 0 0 0-25.256-32.185-60.597-55.649-100.083-62.39-34.917-59.515-53.294-127.32-53.202-196.353 0-0.047 0-0.047 0-0.092-0.047-42.077 6.74-83.826 20.072-123.645h51.503c26.575 0 52.964-4.241 78.221-12.629l146.687-49.007c18.047-5.985 36.945-9.045 55.932-9.045h189.237c18.424 0 36.519 6.786 48.109 21.159 0 0 0 0.047 0 0.047 75.864 94.052 117.188 211.337 117.001 332.153 0 0 0 0.047 0 0.047 0 19.224-1.037 38.166-3.015 56.779-3.203 30.112-31.384 49.244-61.635 49.244h-253.414c-19.506 0-35.342 15.831-35.342 35.342s15.831 35.342 35.342 35.342h33.079c-1.273 13.382 0.755 27.283 6.976 40.239 19.604 41.324 30.63 87.599 30.63 136.463 0 38.782-31.901 70.68-70.68 70.68zM224.753 59.252c0 0 0 0 0 0zM222.067 59.346h0.283l-0.565 0.047 0.283-0.047zM216.693 60.194v0zM211.698 61.749v0zM207.176 63.918l0.235-0.092-0.472 0.235 0.235-0.143zM204.82 65.424v0zM202.935 66.793l0.329-0.235-0.66 0.518 0.329-0.283zM200.954 68.488l0.375-0.329-0.329 0.283-0.518 0.472 0.472-0.426zM199.071 70.278l0.375-0.375-0.66 0.755 0.283-0.375zM197.376 72.257l0.235-0.283-0.143 0.143-0.472 0.611 0.375-0.472zM195.771 74.33l0.329-0.375-0.472 0.66 0.143-0.283zM194.219 76.829v0zM193.039 78.995v0z" />
<glyph unicode="&#xe91d;" glyph-name="grid" d="M167 928c-74.557 0-135-60.443-135-135v0-150c0-74.557 60.443-135 135-135v0h150c74.557 0 135 60.443 135 135v0 150c0 74.557-60.443 135-135 135v0h-150zM167 388c-74.557 0-135-60.443-135-135v0-150c0-74.557 60.443-135 135-135v0h150c74.557 0 135 60.443 135 135v0 150c0 74.557-60.443 135-135 135v0h-150zM707 928c-74.557 0-135-60.443-135-135v0-150c0-74.557 60.443-135 135-135v0h150c74.557 0 135 60.443 135 135v0 150c0 74.557-60.443 135-135 135v0h-150zM707 388c-74.557 0-135-60.443-135-135v0-150c0-74.557 60.443-135 135-135v0h150c74.557 0 135 60.443 135 135v0 150c0 74.557-60.443 135-135 135v0h-150z" />
<glyph unicode="&#xe988;" glyph-name="arrow-left" d="M258.726 380.621h669.199c37.193 0 67.379 30.186 67.379 67.379s-30.186 67.379-67.379 67.379h-669.199l87.121 87.121c26.278 26.278 26.278 68.996 0 95.274s-68.996 26.278-95.274 0l-204.559-204.626c-2.829-3.166-5.323-6.535-7.479-10.040l-0.471-0.876-1.617-2.898-1.482-2.965-0.54-1.213-0.404-0.944-0.404-0.876-0.337-0.944-0.808-2.088-0.203-0.674-0.54-1.617-0.876-3.166-0.27-0.944c-1.213-5.121-1.887-10.444-1.887-15.901s0.674-10.781 1.887-15.901l0.27-0.944 0.876-3.166 0.607-1.887 0.471-1.28 0.607-1.482 0.203-0.674 0.404-0.876 0.54-1.28 0.404-0.876 1.482-2.965 1.617-2.898 1.752-2.829 1.887-2.762 2.088-2.695 2.224-2.628 2.425-2.492 202.133-202.133c26.278-26.278 68.996-26.278 95.274 0s26.278 68.996 0 95.274l-87.121 87.121z" />
<glyph unicode="&#xe989;" glyph-name="arrow-right" d="M765.274 515.379h-669.199c-37.193 0-67.379-30.186-67.379-67.379s30.186-67.379 67.379-67.379h669.199l-87.121-87.121c-26.278-26.278-26.278-68.996 0-95.274s68.996-26.278 95.274 0l204.559 204.626c2.829 3.166 5.323 6.535 7.479 10.040l0.471 0.876 1.617 2.898 1.482 2.965 0.54 1.213 0.404 0.944 0.404 0.876 0.337 0.944 0.808 2.088 0.203 0.674 0.54 1.617 0.876 3.166 0.27 0.944c1.213 5.121 1.887 10.444 1.887 15.901s-0.674 10.781-1.887 15.901l-0.27 0.944-0.876 3.166-0.607 1.887-0.471 1.28-0.607 1.482-0.203 0.674-0.404 0.876-0.54 1.28-0.404 0.876-1.482 2.965-1.617 2.898-1.752 2.829-1.887 2.762-2.088 2.695-2.224 2.628-2.425 2.492-202.133 202.133c-26.278 26.278-68.996 26.278-95.274 0s-26.278-68.996 0-95.274l87.121-87.121z" />
</font>
</defs>
</svg>
